Néhány filmnél nincs hang

Az A-410 hardveres kialakítása miatt csak rá vonatkozó problémák és kérdések fóruma.

Re: Néhány filmnél nincs hang

HozzászólásSzerző: 3cpo » 2017.09.05. 11:26

karczt írta:...És nem tudok rájönni mi lehet a gond

Dobd ki őket, és töltsd le másik verzióban! Vagy az MKVmerge segítségével rakd össze újra az MKV-t, az vélhetően már jó lesz!
Popcornhour.hu adminisztrátor – Az erő veled van!
Avatar
3cpo
 
Hozzászólások: 245
Csatlakozott: 2010.04.20. 18:26

Re: Néhány filmnél nincs hang

HozzászólásSzerző: karczt » 2017.09.04. 19:38

Szinte minden szól. 99%-a a médiafájloknak szól. Prtóbáltam már a restart-ot, kikapcs-bekapcs. De ezeknél a filmeknél nincs hang. Szgépen természetesen van de ennél a pár filmnél nincs és minden másnál van. És nem tudok rájönni mi lehet a gond
karczt
 
Hozzászólások: 1
Csatlakozott: 2014.04.11. 19:57

Re: Néhány filmnél nincs hang

HozzászólásSzerző: 3cpo » 2017.09.04. 16:33

karczt írta:
3cpo írta:...Tulajdonképpen egyiknél sincs hang. A másodiknál az (1080p és 5.1-es AC3) ott kb 1 másodpercre elindul a hang majd elnémul. Amit először másoltam ott még 1 másodpercre sincs hang.

Akkor itt nem a hangsávval van baj. Valami nem kerek a lejátszód és az erősítőd között. Friss bootolás után is ez történik, amikor még más fájlt nem játszottál ezek előtt? Van egyáltalán olyan, ami szól Nálad akkor is, amikor ezek nem?
Popcornhour.hu adminisztrátor – Az erő veled van!
Avatar
3cpo
 
Hozzászólások: 245
Csatlakozott: 2010.04.20. 18:26

Re: Néhány filmnél nincs hang

HozzászólásSzerző: karczt » 2017.09.04. 14:36

3cpo írta:
karczt írta:azt hiszem inkább erre gondoltál:...

Nem tudom, attól függ, melyikkel van gondod. Mert amit először mutattál, az 720p és sztereó AAC a hang. Amit meg most bemásoltál, az már 1080p és 5.1-es AC3-as a hangja. Akkor melyikkel van gondod most?


Tulajdonképpen egyiknél sincs hang. A másodiknál az (1080p és 5.1-es AC3) ott kb 1 másodpercre elindul a hang majd elnémul. Amit először másoltam ott még 1 másodpercre sincs hang.
karczt
 
Hozzászólások: 1
Csatlakozott: 2014.04.11. 19:57

Re: Néhány filmnél nincs hang

HozzászólásSzerző: 3cpo » 2017.09.03. 13:08

karczt írta:azt hiszem inkább erre gondoltál:...

Nem tudom, attól függ, melyikkel van gondod. Mert amit először mutattál, az 720p és sztereó AAC a hang. Amit meg most bemásoltál, az már 1080p és 5.1-es AC3-as a hangja. Akkor melyikkel van gondod most?
Popcornhour.hu adminisztrátor – Az erő veled van!
Avatar
3cpo
 
Hozzászólások: 245
Csatlakozott: 2010.04.20. 18:26

Re: Néhány filmnél nincs hang

HozzászólásSzerző: karczt » 2017.09.03. 09:23

azt hiszem inkább erre gondoltál:

Complete name : Y:\Game of thrones\S07\Game.of.Thrones.S07E02.Stormborn.1080p.AMZN.WEB-DL.DD+5.1.H.264-GoT.mkv
Format : Matroska
Format version : Version 4 / Version 2
File size : 3.57 GiB
Duration : 59 min 52 s
Overall bit rate mode : Variable
Overall bit rate : 8 537 kb/s
Encoded date : UTC 2017-07-24 01:12:14
Writing application : mkvmerge v7.6.0 ('Garden of Dreams') 64bit built on Feb 8 2015 13:04:34
Writing library : libebml v1.3.1 + libmatroska v1.4.2

Video
ID : 1
Format : AVC
Format/Info : Advanced Video Codec
Format profile : High@L4
Format settings, CABAC : Yes
Format settings, RefFrames : 4 frames
Codec ID : V_MPEG4/ISO/AVC
Duration : 59 min 52 s
Bit rate mode : Variable
Bit rate : 7 895 kb/s
Maximum bit rate : 15.0 Mb/s
Width : 1 920 pixels
Height : 1 080 pixels
Display aspect ratio : 16:9
Frame rate mode : Constant
Frame rate : 23.976 (24000/1001) FPS
Color space : YUV
Chroma subsampling : 4:2:0
Bit depth : 8 bits
Scan type : Progressive
Bits/(Pixel*Frame) : 0.159
Stream size : 3.30 GiB (92%)
Default : Yes
Forced : No
Color range : Limited
Color primaries : BT.709
Transfer characteristics : BT.709
Matrix coefficients : BT.709

Audio
ID : 2
Format : E-AC-3
Format/Info : Enhanced Audio Coding 3
Format settings, Endianness : Big
Codec ID : A_EAC3
Duration : 59 min 52 s
Bit rate mode : Constant
Bit rate : 640 kb/s
Channel(s) : 6 channels
Channel positions : Front: L C R, Side: L R, LFE
Sampling rate : 48.0 kHz
Frame rate : 187.500 FPS (256 SPF)
Compression mode : Lossy
Delay relative to video : 14 ms
Stream size : 274 MiB (7%)
Language : English
Service kind : Complete Main
Default : Yes
Forced : No
karczt
 
Hozzászólások: 1
Csatlakozott: 2014.04.11. 19:57

Re: Néhány filmnél nincs hang

HozzászólásSzerző: karczt » 2017.09.01. 18:46

3cpo írta:
karczt írta:Igen, Downmix stereo-ra van állítva.

És milyen a videósáv? Idemásolnád a MediaInfo program által a fájlra kiírt adatokat?


Remélem erre gondoltál:

Video : X264 b97ae06 @ CRF 19.0000
Resolution : 720x406 / 1.773:1
Frame Rate : 23.976 fps
Audio : AAC LC 2ch / 48 KHz
Language : English
Subtitles : English, English (SDH)
Source : Amazon
Size : 352.095 MB (369,198,366 bytes)
karczt
 
Hozzászólások: 1
Csatlakozott: 2014.04.11. 19:57

Re: Néhány filmnél nincs hang

HozzászólásSzerző: 3cpo » 2017.09.01. 10:22

karczt írta:Igen, Downmix stereo-ra van állítva.

És milyen a videósáv? Idemásolnád a MediaInfo program által a fájlra kiírt adatokat?
Popcornhour.hu adminisztrátor – Az erő veled van!
Avatar
3cpo
 
Hozzászólások: 245
Csatlakozott: 2010.04.20. 18:26

Re: Néhány filmnél nincs hang

HozzászólásSzerző: karczt » 2017.08.31. 17:57

Igen, Downmix stereo-ra van állítva

3cpo írta:AAC-nak (általában) szólnia kell szerintem. Sztereó dekódolás van beállítva az AAC-hez?
karczt
 
Hozzászólások: 1
Csatlakozott: 2014.04.11. 19:57

Re: Néhány filmnél nincs hang

HozzászólásSzerző: 3cpo » 2017.08.30. 23:40

AAC-nak (általában) szólnia kell szerintem. Sztereó dekódolás van beállítva az AAC-hez?
Popcornhour.hu adminisztrátor – Az erő veled van!
Avatar
3cpo
 
Hozzászólások: 245
Csatlakozott: 2010.04.20. 18:26

ElőzőKövetkező

Vissza: A-410

Ki van itt

Jelenlévő fórumozók: nincs regisztrált felhasználó valamint 1 vendég

cron